<?xml version="1.0" standalone="no"?>
<!DOCTYPE svg PUBLIC "-//W3C//DTD SVG 1.1//EN" "http://www.w3.org/Graphics/SVG/1.1/DTD/svg11.dtd" >
<svg xmlns="http://www.w3.org/2000/svg">
<metadata>Generated by IcoMoon</metadata>
<defs>
<font id="Filebird-Icon-Font" horiz-adv-x="1024">
<font-face units-per-em="1024" ascent="960" descent="-64" />
<missing-glyph horiz-adv-x="1024" />
<glyph unicode="&#x20;" horiz-adv-x="512" d="" />
<glyph unicode="&#xe900;" glyph-name="palette" d="M746.667 426.667c-35.413 0-64 28.587-64 64s28.587 64 64 64c35.413 0 64-28.587 64-64s-28.587-64-64-64zM618.667 597.334c-35.413 0-64 28.587-64 64s28.587 64 64 64c35.413 0 64-28.587 64-64s-28.587-64-64-64zM405.333 597.334c-35.413 0-64 28.587-64 64s28.587 64 64 64c35.413 0 64-28.587 64-64s-28.587-64-64-64zM277.333 426.667c-35.413 0-64 28.587-64 64s28.587 64 64 64c35.413 0 64-28.587 64-64s-28.587-64-64-64zM512 810.667c-212.053 0-384-171.947-384-384s171.947-384 384-384c35.413 0 64 28.587 64 64 0 16.64-6.4 31.573-16.64 42.667-9.813 11.52-16.213 26.453-16.213 42.667 0 35.413 28.587 64 64 64h75.52c117.76 0 213.333 95.573 213.333 213.333 0 188.587-171.947 341.333-384 341.333z" />
<glyph unicode="&#xe901;" glyph-name="content-paste" d="M810.667 85.334h-597.333v682.667h85.333v-128h426.667v128h85.333zM512 853.334c23.467 0 42.667-19.2 42.667-42.667s-19.2-42.667-42.667-42.667c-23.467 0-42.667 19.2-42.667 42.667s19.2 42.667 42.667 42.667zM810.667 853.334h-178.347c-17.92 49.493-64.853 85.333-120.32 85.333s-102.4-35.84-120.32-85.333h-178.347c-46.933 0-85.333-38.4-85.333-85.333v-682.667c0-46.933 38.4-85.333 85.333-85.333h597.333c46.933 0 85.333 38.4 85.333 85.333v682.667c0 46.933-38.4 85.333-85.333 85.333z" />
<glyph unicode="&#xe902;" glyph-name="folder-download" d="M853.333 682.667c46.933 0 85.333-38.4 85.333-85.333v-426.667c0-46.933-38.4-85.333-85.333-85.333h-682.667c-47.36 0-85.333 38.4-85.333 85.333v512c0 47.36 37.973 85.333 85.333 85.333h256l85.333-85.333h341.333zM821.333 384h-138.667v170.667h-85.333v-170.667h-138.667l181.333-181.333z" />
<glyph unicode="&#xe903;" glyph-name="folder-move" d="M597.333 170.667v128h-170.667v170.667h170.667v128l213.333-213.333zM853.333 682.667h-341.333l-85.333 85.333h-256c-47.36 0-85.333-37.973-85.333-85.333v-512c0-46.933 38.4-85.333 85.333-85.333h682.667c46.933 0 85.333 38.4 85.333 85.333v426.667c0 47.36-38.4 85.333-85.333 85.333z" />
<glyph unicode="&#xe904;" glyph-name="folder-plus" d="M426.667 768l85.333-85.333h341.333c46.933 0 85.333-38.4 85.333-85.333v-426.667c0-46.933-38.4-85.333-85.333-85.333h-682.667c-47.36 0-85.333 38.4-85.333 85.333v512c0 47.36 37.973 85.333 85.333 85.333h256zM640 554.667v-128h-128v-85.333h128v-128h85.333v128h128v85.333h-128v128h-85.333z" />
<glyph unicode="&#xe905;" glyph-name="selection-ellipse-arrow-inside" d="M477.867 768c-53.76-5.12-105.813-22.613-151.893-51.2l-42.667 73.813c55.893 35.413 119.893 57.173 186.027 62.72zM747.947 672c-38.827 36.693-85.333 64.853-136.107 81.92l28.16 82.773c64-19.2 123.307-54.187 170.667-101.973zM227.84 622.507c-29.867-43.947-49.067-93.44-57.173-145.92l-85.333 11.947c8.533 66.133 33.707 130.133 72.533 184.32zM938.667 426.667v-28.16l-85.333 6.827v21.333c0 46.080-8.107 91.307-26.027 133.973l78.080 34.133c22.613-53.333 33.28-110.507 33.28-168.107zM256 200.534l-64-55.893c-43.947 50.347-75.947 109.653-93.867 174.080l79.787 22.613c15.36-52.053 42.24-100.267 78.080-140.8zM517.973-0h-5.973c-64 0-128 13.653-186.027 39.68l37.973 78.080c46.507-21.76 96.853-32.427 148.053-32.427h8.107zM725.333 42.667h-85.333v256h256v-85.333h-110.080l116.053-117.76-60.16-60.16-116.48 113.92z" />
<glyph unicode="&#xe906;" glyph-name="sort-alphabetical-ascending" d="M810.667 213.334h128l-170.667-170.667-170.667 170.667h128v597.333h85.333zM469.333 384v-85.333l-142.080-170.667h142.080v-85.333h-256v85.333l142.080 170.667h-142.080v85.333zM384 810.667h-85.333c-46.933 0-85.333-38.4-85.333-85.333v-256h85.333v85.333h85.333v-85.333h85.333v256c0 46.933-37.973 85.333-85.333 85.333zM384 640h-85.333v85.333h85.333z" />
<glyph unicode="&#xe907;" glyph-name="cog" d="M512 277.334c-82.347 0-149.333 66.987-149.333 149.333s66.987 149.333 149.333 149.333c82.347 0 149.333-66.987 149.333-149.333s-66.987-149.333-149.333-149.333zM829.013 385.28c1.707 13.653 2.987 27.307 2.987 41.387s-1.28 28.16-2.987 42.667l90.027 69.547c8.107 6.4 10.24 17.92 5.12 27.307l-85.333 147.627c-5.12 9.387-16.64 13.227-26.027 9.387l-106.24-42.667c-22.187 16.64-45.227 31.147-72.107 41.813l-15.787 113.067c-1.707 10.24-10.667 17.92-21.333 17.92h-170.667c-10.667 0-19.627-7.68-21.333-17.92l-15.787-113.067c-26.88-10.667-49.92-25.173-72.107-41.813l-106.24 42.667c-9.387 3.84-20.907 0-26.027-9.387l-85.333-147.627c-5.547-9.387-2.987-20.907 5.12-27.307l90.027-69.547c-1.707-14.507-2.987-28.587-2.987-42.667s1.28-27.733 2.987-41.387l-90.027-70.827c-8.107-6.4-10.667-17.92-5.12-27.307l85.333-147.627c5.12-9.387 16.64-12.8 26.027-9.387l106.24 43.093c22.187-17.067 45.227-31.573 72.107-42.24l15.787-113.067c1.707-10.24 10.667-17.92 21.333-17.92h170.667c10.667 0 19.627 7.68 21.333 17.92l15.787 113.067c26.88 11.093 49.92 25.173 72.107 42.24l106.24-43.093c9.387-3.413 20.907 0 26.027 9.387l85.333 147.627c5.12 9.387 2.987 20.907-5.12 27.307l-90.027 70.827z" />
<glyph unicode="&#xe908;" glyph-name="delete" d="M810.667 768h-149.333l-42.667 42.667h-213.333l-42.667-42.667h-149.333v-85.333h597.333zM256 128c0-46.933 38.4-85.333 85.333-85.333h341.333c46.933 0 85.333 38.4 85.333 85.333v512h-512v-512z" />
<glyph unicode="&#xe909;" glyph-name="folder-edit" d="M128 768c-47.36 0-85.333-37.973-85.333-85.333v-512c0-46.933 38.4-85.333 85.333-85.333h341.333v80.64l426.667 426.667v4.693c0 47.36-38.4 85.333-85.333 85.333h-341.333l-85.333 85.333h-256zM897.707 463.787c-5.973 0-11.947-2.56-16.64-7.253l-42.667-42.667 87.467-87.467 42.667 42.667c9.387 8.96 9.387 23.893 0 32.853l-54.613 54.613c-4.693 4.693-10.24 7.253-16.213 7.253zM813.653 389.12l-258.987-258.56v-87.893h87.893l258.56 258.987-87.467 87.467z" />
<glyph unicode="&#xe90a;" glyph-name="folder-home" d="M853.333 682.667h-341.333l-85.333 85.333h-256c-46.933 0-85.333-38.4-85.333-85.333v-512c0-46.933 38.4-85.333 85.333-85.333h682.667c46.933 0 85.333 38.4 85.333 85.333v426.667c0 46.933-38.4 85.333-85.333 85.333zM725.333 384v-170.667h-85.333v128h-85.333v-128h-85.333v170.667h-85.333l213.333 170.667 213.333-170.667z" />
<glyph unicode="&#xe90b;" glyph-name="folder-open" d="M810.667 85.334h-640c-47.36 0-85.333 38.4-85.333 85.333v512c0 47.36 37.973 85.333 85.333 85.333h256l85.333-85.333h298.667c46.933 0 85.333-38.4 85.333-85.333v0h-725.333v-426.667l91.307 341.333h728.32l-97.28-362.667c-9.813-37.12-43.093-64-82.347-64z" />
<glyph unicode="&#xe90c;" glyph-name="folder-search" d="M704 426.667c106.667 0 192-85.333 192-192 0-37.547-10.667-72.96-29.44-102.4l131.413-132.267-59.307-59.307-133.12 130.987c-29.44-18.347-64.427-29.013-101.547-29.013-106.667 0-192 85.333-192 192s85.333 192 192 192zM704 341.334c-58.88 0-106.667-47.787-106.667-106.667s47.787-106.667 106.667-106.667c58.88 0 106.667 47.787 106.667 106.667s-47.787 106.667-106.667 106.667zM384 768l85.333-85.333h341.333c46.933 0 85.333-38.4 85.333-85.333v-162.56c-49.92 47.787-117.333 77.227-192 77.227-153.173 0-277.333-124.16-277.333-277.333 0-55.040 15.787-106.667 42.667-149.333h-341.333c-47.36 0-85.333 38.4-85.333 85.333v512c0 47.36 37.973 85.333 85.333 85.333h256z" />
<glyph unicode="&#xe90d;" glyph-name="folder" d="M426.667 768h-256c-47.36 0-85.333-37.973-85.333-85.333v-512c0-46.933 38.4-85.333 85.333-85.333h682.667c46.933 0 85.333 38.4 85.333 85.333v426.667c0 47.36-38.4 85.333-85.333 85.333h-341.333l-85.333 85.333z" />
<glyph unicode="&#xe90e;" glyph-name="folder-multiple" d="M938.667 768h-341.333l-85.333 85.333h-256c-46.933 0-85.333-38.4-85.333-85.333v-512c0-46.933 38.4-85.333 85.333-85.333h682.667c46.933 0 85.333 38.4 85.333 85.333v426.667c0 46.933-38.4 85.333-85.333 85.333zM85.333 682.667h-85.333v-597.333c0-46.933 38.4-85.333 85.333-85.333h768v85.333h-768v597.333z" />
<glyph unicode="&#xe90f;" glyph-name="folder-alert" d="M640 426.667h85.333v-213.333h-85.333v213.333zM640 170.667h85.333v-85.333h-85.333v85.333zM981.333 256c0-165.12-133.547-298.667-298.667-298.667-101.547 0-192 50.773-245.333 128h-309.333c-47.36 0-85.333 38.4-85.333 85.333v512c0 47.36 37.973 85.333 85.333 85.333h256l85.333-85.333h341.333c46.933 0 85.333-38.4 85.333-85.333v-132.267c52.907-53.76 85.333-127.573 85.333-209.067zM682.667 469.334c-117.76 0-213.333-95.573-213.333-213.333s95.573-213.333 213.333-213.333c117.76 0 213.333 95.573 213.333 213.333s-95.573 213.333-213.333 213.333z" />
<glyph unicode="&#xe910;" glyph-name="close-circle" d="M512 853.334c235.947 0 426.667-190.72 426.667-426.667s-190.72-426.667-426.667-426.667c-235.947 0-426.667 190.72-426.667 426.667s190.72 426.667 426.667 426.667zM665.173 640l-153.173-153.173-153.173 153.173-60.16-60.16 153.173-153.173-153.173-153.173 60.16-60.16 153.173 153.173 153.173-153.173 60.16 60.16-153.173 153.173 153.173 153.173-60.16 60.16z" />
<glyph unicode="&#xe911;" glyph-name="sort-alphabetical-descending" d="M810.667 640h128l-170.667 170.667-170.667-170.667h128v-597.333h85.333zM469.333 384v-85.333l-142.080-170.667h142.080v-85.333h-256v85.333l142.080 170.667h-142.080v85.333zM384 810.667h-85.333c-46.933 0-85.333-38.4-85.333-85.333v-256h85.333v85.333h85.333v-85.333h85.333v256c0 46.933-37.973 85.333-85.333 85.333zM384 640h-85.333v85.333h85.333z" />
<glyph unicode="&#xe912;" glyph-name="sort-variant-remove" d="M128 384h512v85.333h-512zM128 682.667v-85.333h768v85.333zM128 170.667h256v85.333h-256v-85.333zM961.707 218.454l-90.88-90.453 90.88-90.453-60.587-60.587-90.453 90.88-90.453-90.88-60.16 60.587 90.453 90.453-90.453 90.453 60.16 60.16 90.453-90.453 90.453 90.88 60.587-60.587z" />
<glyph unicode="&#xe913;" glyph-name="file-tree" d="M128 810.667h256v-170.667h-256v170.667zM640 512h256v-170.667h-256v170.667zM640 213.334h256v-170.667h-256v170.667zM554.667 384h-256v-213.333h256v-85.333h-341.333v469.333h85.333v-85.333h256v-85.333z" />
<glyph unicode="&#xe914;" glyph-name="loading" d="M512 768v85.333c-235.641 0-426.667-191.025-426.667-426.667v0h85.333c0 188.513 152.82 341.333 341.333 341.333v0z" />
<glyph unicode="&#xe915;" glyph-name="image" d="M362.667 362.667l106.667-128 149.333 192 192-256h-597.333zM896 128v597.333c0 47.36-38.4 85.333-85.333 85.333h-597.333c-47.128 0-85.333-38.205-85.333-85.333v0-597.333c0-47.128 38.205-85.333 85.333-85.333v0h597.333c47.128 0 85.333 38.205 85.333 85.333v0z" />
<glyph unicode="&#xe916;" glyph-name="alert-circle" d="M554.667 384h-85.333v256h85.333zM554.667 213.334h-85.333v85.333h85.333zM512 853.334c-235.641 0-426.667-191.025-426.667-426.667v0c0-235.641 191.025-426.667 426.667-426.667v0c235.641 0 426.667 191.025 426.667 426.667v0c0 235.641-191.025 426.667-426.667 426.667v0z" />
<glyph unicode="&#xe917;" glyph-name="check-circle" d="M512 853.334c-234.667 0-426.667-192-426.667-426.667s192-426.667 426.667-426.667 426.667 192 426.667 426.667-192 426.667-426.667 426.667zM426.667 213.334l-213.333 213.333 60.16 60.16 153.173-152.747 323.84 323.84 60.16-60.587-384-384z" />
<glyph unicode="&#xe918;" glyph-name="sync-circle" d="M85.333 426.667c0-235.641 191.025-426.667 426.667-426.667s426.667 191.025 426.667 426.667c0 235.641-191.025 426.667-426.667 426.667v0c-235.641 0-426.667-191.025-426.667-426.667v0zM665.6 353.28c10.622 21.438 16.903 46.66 17.066 73.332v0.055c0 94.257-76.41 170.667-170.667 170.667v0-85.333l-133.12 128 133.12 128v-85.333c141.385 0 256-114.615 256-256v0c0-0.133 0-0.291 0-0.448 0-50.372-14.795-97.289-40.277-136.642l0.597 0.984zM256 426.667c0 0.133 0 0.291 0 0.448 0 50.372 14.795 97.289 40.277 136.642l-0.597-0.984 62.72-62.72c-10.622-21.438-16.903-46.66-17.066-73.332v-0.055c0-94.257 76.41-170.667 170.667-170.667v0 85.333l128-128-128-128v85.333c-141.385 0-256 114.615-256 256v0z" />
<glyph unicode="&#xe919;" glyph-name="folder-open-outline" d="M260.267 512l-89.6-341.333v426.667h725.333c0 47.128-38.205 85.333-85.333 85.333v0h-298.667l-85.333 85.333h-256c-47.128 0-85.333-38.205-85.333-85.333v0-512c0-47.128 38.205-85.333 85.333-85.333v0h640c38.4 0 72.533 25.6 81.067 64l98.133 362.667h-729.6zM810.667 170.667h-554.667l68.267 256h554.667l-68.267-256z" />
<glyph unicode="&#xe91a;" glyph-name="checkbox-blank-outline" d="M810.667 810.667h-597.333c-47.36 0-85.333-37.973-85.333-85.333v-597.333c0-47.128 38.205-85.333 85.333-85.333v0h597.333c47.128 0 85.333 38.205 85.333 85.333v0 597.333c0 47.36-38.4 85.333-85.333 85.333zM810.667 725.334v-597.333h-597.333v597.333h597.333z" />
<glyph unicode="&#xe91b;" glyph-name="checkbox-intermediate" d="M810.667 810.667h-597.333c-47.128 0-85.333-38.205-85.333-85.333v0-597.333c0-47.128 38.205-85.333 85.333-85.333v0h597.333c47.128 0 85.333 38.205 85.333 85.333v0 597.333c0 47.128-38.205 85.333-85.333 85.333v0zM810.667 128h-597.333v597.333h597.333v-597.333zM725.333 213.334h-426.667v426.667h426.667v-426.667z" />
<glyph unicode="&#xe91c;" glyph-name="checkbox-marked" d="M426.667 213.334l-213.333 213.333 60.16 60.587 153.173-153.173 323.84 323.84 60.16-60.587zM810.667 810.667h-597.333c-47.36 0-85.333-37.973-85.333-85.333v-597.333c0-47.128 38.205-85.333 85.333-85.333v0h597.333c47.128 0 85.333 38.205 85.333 85.333v0 597.333c0 47.36-38.4 85.333-85.333 85.333z" />
<glyph unicode="&#xe91d;" glyph-name="check" d="M896 640l-512-512-234.667 234.667 60.16 60.16 174.507-174.080 451.84 451.413 60.16-60.16z" />
</font>
</defs>
</svg>
